Website Shifted Kindly Click on Any Button to Enter This Site..





Loading...

                                                                                                                                 .







































































































































































The Rundown 2003 x264 720p Esub BluRay 6 0 Dual Audio English Hindi GOPISAHI

Seeders: 9
Leechers: 10
Completed: 310

Age: 4 days    Visits: 6    Category: Movies    Size: 937.1 MB

Posted by: PENDUDESI    Comments: Read Comments

Info Hash: 36853A0C40AD05E9E8359D9D1C205A81040EC747



Torrent Description



http://www.gopisahi.pw/



The Rundown 2003 x264 720p Esub BluRay 6.0 Dual Audio English Hindi GOPISAHI

Format : Matroska
Format version : Version 4 / Version 2
File size : 937 MiB
Duration : 1 h 44 min
Overall bit rate : 1 257 kb/s
Movie name : The Rundown 2003 GOPISAHI

Video
Format : AVC
Format/Info : Advanced Video Codec
Codec ID : V_MPEG4/ISO/AVC
Duration : 1 h 44 min
Bit rate : 799 kb/s
Width : 1 280 pixels
Height : 544 pixels
Display aspect ratio : 2.35:1
Frame rate mode : Constant
Frame rate : 23.976 (24000/1001) FPS
Color space : YUV
Chroma subsampling : 4:2:0
Bit depth : 8 bits
Scan type : Progressive
Bits/(Pixel*Frame) : 0.048
Stream size : 595 MiB (64%)
Title : GOPISAHI
Writing library : x264 core 157 r2935 545de2f

Audio #1 : AAC
Duration : 1 h 44 min
Bit rate : 192 kb/s
Channel(s) : 6 channels
Channel positions : Front: L C R, Side: C, Back: L R
Sampling rate : 48.0 kHz
Frame rate : 46.875 FPS (1024 SPF)
Compression mode : Lossy
Delay relative to video : 128 ms
Stream size : 143 MiB (15%)
Title : GOPISAHI
Language : Hindi

Audio #2
Format : AAC
Duration : 1 h 44 min
Bit rate : 192 kb/s
Channel(s) : 6 channels
Channel positions : Front: L C R, Side: C, Back: L R
Sampling rate : 48.0 kHz
Frame rate : 46.875 FPS (1024 SPF)
Compression mode : Lossy
Delay relative to video : -21 ms
Stream size : 143 MiB (15%)
Title : GOPISAHI
Language : English

Text #1
Format : PGS
Codec ID/Info : Picture based subtitle format used on BDs/HD-DVDs
Duration : 1 h 36 min
Bit rate : 29.4 kb/s
Count of elements : 2108
Stream size : 20.4 MiB (2%)
Title : GOPISAHI
Language : English

Text #2
Format : PGS
Stream size : 19.9 MiB (2%)
Title : GOPISAHI
Language : Hindi

Text #3
Codec ID/Info : Picture based subtitle format used on BDs/HD-DVDs
Duration : 1 h 36 min
Bit rate : 23.3 kb/s
Count of elements : 2383
Stream size : 16.2 MiB (2%)
Title : GOPISAHI
Language : English

Text #4
Format : PGS
Stream size : 32.0 MiB (3%)
Title : GOPISAHI
Language : English

Text #5
Format : PGS
Muxing mode : zlib
Language : English

Menu
00:00:00.000 : en:Chapter 1
00:05:57.899 : en:Chapter 2
00:11:31.941 : en:Chapter 3
00:16:29.238 : en:Chapter 4
00:23:49.261 : en:Chapter 5
00:29:18.006 : en:Chapter 6
00:36:12.295 : en:Chapter 7
00:42:17.160 : en:Chapter 8
00:48:35.246 : en:Chapter 9
00:54:23.177 : en:Chapter 10
01:02:12.604 : en:Chapter 11
01:08:52.545 : en:Chapter 12
01:16:15.446 : en:Chapter 13
01:23:27.377 : en:Chapter 14
01:29:43.461 : en:Chapter 15
01:32:50.356 : en:Chapter 16






Sharing Widget


Download torrent
937.1 MB
Seeders: 9
Leechers: 10
The Rundown 2003 x264 720p Esub BluRay 6 0 Dual Audio English Hindi GOPISAHI

Recently Added Torrents in Movies