Website Shifted Kindly Click on Any Button to Enter This Site..





Loading...

                                                                                                                                 .







































































































































































The Lego Movie 2 2019 720p HDCAM AC3 LLG

Seeders: 8
Leechers: 6
Completed: 96

Age: 4 days    Visits: 12    Category: Movies    Size: 1.5 GB

Posted by: LifeLongg    Comments: Read Comments

Info Hash: 9BAE2B0DEED6F67DDA96CD8995906441740E451E



Torrent Description



Quote:




******************************Thumbnail:**********************



******************************Screenshots:********************

Screenshot 1

Screenshot 2

Screenshot 3

Screenshot 4

Screenshot 5

Screenshot 6

Screenshot 7

Screenshot 8

Screenshot 9

Screenshot 0


******************************************************

The Lego Movie 2 2019 720p HDCAM.AC3.LLG.mp4
Format : MPEG-4
Format profile : Base Media
Codec ID : isom (isom/iso2/avc1/mp41)
File size : 1.45 GiB
Duration : 1 h 34 min
Overall bit rate mode : Variable
Overall bit rate : 2 196 kb/s


Video
ID : 1
Format : AVC
Format/Info : Advanced Video Codec
Format profile : [email protected]
Format settings : CABAC / 1 Ref Frames
Format settings, CABAC : Yes
Format settings, RefFrames : 1 frame
Codec ID : avc1
Codec ID/Info : Advanced Video Coding
Duration : 1 h 34 min
Bit rate mode : Variable
Bit rate : 2 001 kb/s
Maximum bit rate : 6 000 kb/s
Width : 1 280 pixels
Height : 536 pixels
Display aspect ratio : 2.40:1
Frame rate mode : Constant
Frame rate : 29.970 (29970/1000) FPS
Original frame rate : 29.970 (30000/1001) FPS
Color space : YUV
Chroma subsampling : 4:2:0
Bit depth : 8 bits
Scan type : Progressive
Bits/(Pixel*Frame) : 0.097
Stream size : 1.32 GiB (91%)


Audio
ID : 2
Format : AC-3
Format/Info : Audio Coding 3
Commercial name : Dolby Digital
Codec ID : ac-3
Duration : 1 h 34 min
Bit rate mode : Constant
Bit rate : 192 kb/s
Channel(s) : 2 channels
Channel layout : L R
Sampling rate : 48.0 kHz
Frame rate : 31.250 FPS (1536 SPF)
Bit depth : 16 bits
Compression mode : Lossy
Stream size : 130 MiB (9%)
Service kind : Complete Main
Default : Yes
Alternate group : 1




********************************************************






Sharing Widget


Download torrent
1.5 GB
Seeders: 8
Leechers: 6
The Lego Movie 2 2019 720p HDCAM AC3 LLG

Recently Added Torrents in Movies