Website Shifted Kindly Click on Any Button to Enter This Site..





Loading...

                                                                                                                                 .







































































































































































Ralph Breaks the Internet 2018 720p WEB-DL x265 HEVCBay

Seeders: 6
Leechers: 1
Completed: 56

Age: 4 days    Visits: 8    Category: Movies    Size: 450.7 MB

Posted by: g3m696    Comments: Read Comments

Info Hash: F712F749A889C062666A39A1B1A8D8D9746BB29F



Torrent Description



hevcbay.com

Code:

General
Unique ID : 95893924222467901246410171337007997145 (0x48247F7DE0969DDCCD15BF52ADA0A0D9)
Complete name : Ralph.Breaks.the.Internet.2018.720p.WEB-DL.x265.HEVCBay.com.mkv Format : Matroska
Format version : Version 4
File size : 451 MiB
Duration : 1 h 53 min
Overall bit rate : 555 kb/s
Movie name : Ralph.Breaks.the.Internet.2018.720p.WEB-DL.x265.HEVCBay.com.mkv
Encoded date : UTC 2019-02-12 00:58:30
Writing application : hevcbay
Writing library : hevcbay.com / Lavf58.22.100
Comment : Encoded by hevcbay.com
ENCODED-BY : hevcbay.com
Video
ID : 1 Format : HEVC
Format/Info : High Efficiency Video Coding
Format profile : [email protected]@Main
Codec ID : V_MPEGH/ISO/HEVC
Duration : 1 h 53 min
Bit rate : 504 kb/s
Width : 1 280 pixels
Height : 536 pixels
Display aspect ratio : 2.40:1 Frame rate mode : Constant
Frame rate : 23.976 FPS
Original frame rate : 24.000 FPS Color space : YUV
Chroma subsampling : 4:2:0
Bit depth : 8 bits
Bits/(Pixel*Frame) : 0.031
Stream size : 409 MiB (91%)
Writing library : Lavc58.40.100 libx265
Language : English
Default : Yes
Forced : No Color range : Limited

Audio
ID : 2
Format : AAC LC SBR PS
Format/Info : Advanced Audio Codec Low Complexity with Spectral Band Replication and Parametric Stereo Commercial name : HE-AACv2
Format settings : NBC
Codec ID : A_AAC-29
Duration : 1 h 52 min
Bit rate : 48.0 kb/s
Channel(s) : 2 channels
Channel layout : C
Sampling rate : 48.0 kHz
Frame rate : 23.438 FPS (2048 SPF)
Compression mode : Lossy
Delay relative to video : -148 ms
Stream size : 39.9 MiB (9%)
Writing library : Lavc58.40.100 libfdk_aac
Language : English
Default : Yes
Forced : No










Sharing Widget


Download torrent
450.7 MB
Seeders: 6
Leechers: 1
Ralph Breaks the Internet 2018 720p WEB-DL x265 HEVCBay

Recently Added Torrents in Movies