Website Shifted Kindly Click on Any Button to Enter This Site..





Loading...

                                                                                                                                 .







































































































































































Ralph Breaks the Internet 2018 1080p WEB-DL x265 HEVCBay

Seeders: 6
Leechers: 2
Completed: 75

Age: 4 days    Visits: 11    Category: Movies    Size: 797.8 MB

Posted by: g3m696    Comments: Read Comments

Info Hash: E00805A97DEC58E9FD092036D3CB39B17B919E07



Torrent Description



hevcbay.com

Code:

General
Unique ID                                : 284729993882659444729876585745811811134 (0xD635008B7C4E0FE9DE9ED346368CAB3E)
Complete name                            : Ralph.Breaks.the.Internet.2018.1080p.WEB-DL.x265.HEVCBay.com.mkv
Format                                   : Matroska
Format version                           : Version 4
File size                                : 798 MiB
Duration                                 : 1 h 53 min
Overall bit rate                         : 983 kb/s
Movie name                               : Ralph.Breaks.the.Internet.2018.1080p.WEB-DL.x265.HEVCBay.com.mkv
Encoded date                             : UTC 2019-02-12 00:59:17
Writing application                      : hevcbay
Writing library                          : hevcbay.com / Lavf58.22.100
Comment                                  : Encoded by hevcbay.com
ENCODED-BY                               : hevcbay.com

Video
ID                                       : 1
Format                                   : HEVC
Format/Info                              : High Efficiency Video Coding
Format profile                           : [email protected]@Main
Codec ID                                 : V_MPEGH/ISO/HEVC
Duration                                 : 1 h 53 min
Bit rate                                 : 932 kb/s
Width                                    : 1 920 pixels
Height                                   : 804 pixels
Display aspect ratio                     : 2.40:1
Frame rate mode                          : Constant
Frame rate                               : 23.976 FPS
Original frame rate                      : 24.000 FPS
Color space                              : YUV
Chroma subsampling                       : 4:2:0
Bit depth                                : 8 bits
Bits/(Pixel*Frame)                       : 0.025
Stream size                              : 756 MiB (95%)
Writing library                          : Lavc58.40.100 libx265
Language                                 : English
Default                                  : Yes
Forced                                   : No
Color range                              : Limited

Audio
ID                                       : 2
Format                                   : AAC LC SBR PS
Format/Info                              : Advanced Audio Codec Low Complexity with Spectral Band Replication and Parametric Stereo
Commercial name                          : HE-AACv2
Format settings                          : NBC
Codec ID                                 : A_AAC-29
Duration                                 : 1 h 52 min
Bit rate                                 : 48.0 kb/s
Channel(s)                               : 2 channels
Channel layout                           : C
Sampling rate                            : 48.0 kHz
Frame rate                               : 23.438 FPS (2048 SPF)
Compression mode                         : Lossy
Delay relative to video                  : -148 ms
Stream size                              : 39.9 MiB (5%)
Writing library                          : Lavc58.40.100 libfdk_aac
Language                                 : English
Default                                  : Yes
Forced                                   : No










Sharing Widget


Download torrent
797.8 MB
Seeders: 6
Leechers: 2
Ralph Breaks the Internet 2018 1080p WEB-DL x265 HEVCBay

Recently Added Torrents in Movies