Website Shifted Kindly Click on Any Button to Enter This Site..





Loading...

                                                                                                                                 .







































































































































































Oz The Great And Powerful (2013) 1080p BluRay x264 Dual Audio [Hindi DD2 0 - English DD5 1] - ESUB ~ Ranvijay

Seeders: 14
Leechers: 16
Completed: 95

Age: 5 days    Visits: 40    Category: Movies    Size: 4.4 GB

Posted by: TheFighter    Comments: Read Comments

Info Hash: 661C3C282FC3AAA6549DACE603C026CBA30ABB5D



Torrent Description









Oz The Great And Powerful (2013) 1080p BluRay x264 Dual Audio [Hindi DD2.0 - English DD5.1] - ESUB ~ Ranvijay


Hindi Audio Credit :- Dredd

Buy RDP Online




Format                                   : Matroska
Format version                           : Version 4 / Version 2
File size                                : 4.36 GiB
Duration                                 : 2 h 10 min
Overall bit rate                         : 4 782 kb/s
Movie name                               : Oz The Great And Powerful (2013) 1080p BluRay x264 Dual Audio [Hindi DD2.0 - English DD5.1] - ESUB ~ Ranvijay

Video
ID                                       : 1
Format                                   : AVC
Format/Info                              : Advanced Video Codec
Duration                                 : 2 h 10 min
Bit rate                                 : 4 000 kb/s
Width                                    : 1 920 pixels
Height                                   : 800 pixels
Display aspect ratio                     : 2.40:1
Frame rate mode                          : Constant
Frame rate                               : 23.976 (24000/1001) FPS
Color space                              : YUV
Chroma subsampling                       : 4:2:0
Bit depth                                : 8 bits
Scan type                                : Progressive
Bits/(Pixel*Frame)                       : 0.109
Stream size                              : 3.65 GiB (84%)
Title                                    : ~Ranvijay~

Audio #1
ID                                       : 2
Format                                   : AC-3
Format/Info                              : Audio Coding 3
Codec ID                                 : A_AC3
Duration                                 : 2 h 10 min
Bit rate mode                            : Constant
Bit rate                                 : 384 kb/s
Channel(s)                               : 2 channels
Channel positions                        : Front: L R
Sampling rate                            : 48.0 kHz
Frame rate                               : 31.250 FPS (1536 SPF)
Bit depth                                : 16 bits
Compression mode                         : Lossy
Stream size                              : 358 MiB (8%)
Title                                    : ~Ranvijay~
Language                                 : Hindi
Service kind                             : Complete Main
Default                                  : Yes
Forced                                   : Yes

Audio #2
ID                                       : 3
Format                                   : AC-3
Format/Info                              : Audio Coding 3
Codec ID                                 : A_AC3
Duration                                 : 2 h 10 min
Bit rate mode                            : Constant
Bit rate                                 : 384 kb/s
Channel(s)                               : 6 channels
Channel positions                        : Front: L C R, Side: L R, LFE
Sampling rate                            : 48.0 kHz
Frame rate                               : 31.250 FPS (1536 SPF)
Bit depth                                : 16 bits
Compression mode                         : Lossy
Stream size                              : 358 MiB (8%)
Title                                    : ~Ranvijay~
Language                                 : English
Service kind                             : Complete Main
Default                                  : No
Forced                                   : No

Text
ID                                       : 4
Format                                   : PGS
Muxing mode                              : zlib
Codec ID                                 : S_HDMV/PGS
Codec ID/Info                            : Picture based subtitle format used on BDs/HD-DVDs
Duration                                 : 2 h 9 min
Bit rate                                 : 36.6 kb/s
Count of elements                        : 4022
Stream size                              : 34.0 MiB (1%)
Title                                    : ~Ranvijay~
Language                                 : English
Default                                  : Yes
Forced                                   : Yes

Menu
00:00:00.000                             : en:00:00:00.000
00:02:37.699                             : en:00:02:37.699
00:06:16.959                             : en:00:06:16.959
00:09:57.555                             : en:00:09:57.555
00:11:32.691                             : en:00:11:32.691
00:15:20.753                             : en:00:15:20.753
00:17:47.191                             : en:00:17:47.191
00:20:29.478                             : en:00:20:29.478
00:24:01.982                             : en:00:24:01.982
00:24:49.779                             : en:00:24:49.779
00:27:01.661                             : en:00:27:01.661
00:29:37.358                             : en:00:29:37.358
00:32:43.419                             : en:00:32:43.419
00:34:30.193                             : en:00:34:30.193
00:37:22.657                             : en:00:37:22.657
00:38:57.376                             : en:00:38:57.376
00:40:39.144                             : en:00:40:39.144
00:42:09.944                             : en:00:42:09.944
00:42:52.444                             : en:00:42:52.444
00:45:33.480                             : en:00:45:33.480
00:47:22.839                             : en:00:47:22.839
00:48:32.409                             : en:00:48:32.409
00:53:29.831                             : en:00:53:29.831
00:55:22.652                             : en:00:55:22.652
00:57:15.932                             : en:00:57:15.932
00:59:10.838                             : en:00:59:10.838
01:02:05.263                             : en:01:02:05.263
01:05:33.220                             : en:01:05:33.220
01:06:21.102                             : en:01:06:21.102
01:09:55.774                             : en:01:09:55.774
01:12:20.836                             : en:01:12:20.836
01:15:37.783                             : en:01:15:37.783
01:18:20.320                             : en:01:18:20.320
01:19:47.782                             : en:01:19:47.782
01:21:27.882                             : en:01:21:27.882
01:26:16.170                             : en:01:26:16.170
01:28:08.783                             : en:01:28:08.783
01:30:33.219                             : en:01:30:33.219
01:34:24.116                             : en:01:34:24.116
01:36:57.436                             : en:01:36:57.436
01:37:35.975                             : en:01:37:35.975
01:41:30.876                             : en:01:41:30.876
01:42:30.394                             : en:01:42:30.394
01:45:51.762                             : en:01:45:51.762
01:48:33.423                             : en:01:48:33.423
01:51:23.802                             : en:01:51:23.802
01:54:26.317                             : en:01:54:26.317
01:55:54.072                             : en:01:55:54.072
01:57:58.404                             : en:01:57:58.404
01:59:34.417                             : en:01:59:34.417
02:02:49.570                             : en:02:02:49.570
02:04:32.756                             : en:02:04:32.756















Don't walk as you are king, walk as you don't care who the king is....!!






Sharing Widget


Download torrent
4.4 GB
Seeders: 14
Leechers: 16
Oz The Great And Powerful (2013) 1080p BluRay x264 Dual Audio [Hindi DD2 0 - English DD5 1] - ESUB ~ Ranvijay

Recently Added Torrents in Movies