Website Shifted Kindly Click on Any Button to Enter This Site..





Loading...

                                                                                                                                 .







































































































































































How to Train Your Dragon 3 2018 NEW 720p HDCAM LLG

Seeders: 22
Leechers: 11
Completed: 395

Age: 5 days    Visits: 11    Category: Movies    Size: 1.8 GB

Posted by: LifeLongg    Comments: Read Comments

Info Hash: 22E36FD9A1B90B568C6F8C6A0CBC591401C4F65D



Torrent Description



Quote:




******************************Thumbnail:**********************



******************************Screenshots:********************

Screenshot 1

Screenshot 2

Screenshot 3

Screenshot 4

Screenshot 5

Screenshot 6

Screenshot 7

Screenshot 8

Screenshot 9

Screenshot 0


******************************************************

How to Train Your Dragon 3 2018 NEW 720p HDCAM.LLG.mp4
Format : MPEG-4
Format profile : Base Media
Codec ID : isom (isom/iso2/avc1/mp41)
File size : 1.78 GiB
Duration : 1 h 35 min
Overall bit rate mode : Variable
Overall bit rate : 2 680 kb/s


Video
ID : 1
Format : AVC
Format/Info : Advanced Video Codec
Format profile : [email protected]
Format settings : CABAC / 1 Ref Frames
Format settings, CABAC : Yes
Format settings, RefFrames : 1 frame
Codec ID : avc1
Codec ID/Info : Advanced Video Coding
Duration : 1 h 35 min
Bit rate mode : Variable
Bit rate : 2 485 kb/s
Maximum bit rate : 7 500 kb/s
Width : 1 280 pixels
Height : 536 pixels
Display aspect ratio : 2.40:1
Frame rate mode : Constant
Frame rate : 29.970 (29970/1000) FPS
Original frame rate : 29.970 (30000/1001) FPS
Color space : YUV
Chroma subsampling : 4:2:0
Bit depth : 8 bits
Scan type : Progressive
Bits/(Pixel*Frame) : 0.121
Stream size : 1.65 GiB (93%)

Audio
ID : 2
Format : AC-3
Format/Info : Audio Coding 3
Commercial name : Dolby Digital
Codec ID : ac-3
Duration : 1 h 35 min
Bit rate mode : Constant
Bit rate : 192 kb/s
Channel(s) : 2 channels
Channel layout : L R
Sampling rate : 48.0 kHz
Frame rate : 31.250 FPS (1536 SPF)
Bit depth : 16 bits
Compression mode : Lossy
Stream size : 131 MiB (7%)
Service kind : Complete Main
Default : Yes
Alternate group : 1



********************************************************






Sharing Widget


Download torrent
1.8 GB
Seeders: 22
Leechers: 11
How to Train Your Dragon 3 2018 NEW 720p HDCAM LLG

Recently Added Torrents in Movies