Website Shifted Kindly Click on Any Button to Enter This Site..





Loading...

                                                                                                                                 .







































































































































































Hook (1991) 1080p 10bit Bluray x265 HEVC [Org DD 2 0 Hindi + DD 5 1 English] MSubs ~ TombDoc

Seeders: 5
Leechers: 7
Completed: 47

Age: 4 days    Visits: 25    Category: Movies    Size: 4.0 GB

Posted by: McuDudeS    Comments: Read Comments

Info Hash: 7305E212CFDA02916207A80C034FE84B5D14150B



Torrent Description






What if Peter Pan grew up?...





Hook (1991) 1080p 10bit Bluray x265 HEVC [Org DD 2.0 Hindi + DD 5.1 English] MSubs ~ TombDoc


Org Untouched VCD DD 2.0 224Kbps Hindi Audio By Hammer {Thanks}


Code:

Format : Matroska
Format version : Version 4
File size : 3.95 GiB
Duration : 2 h 21 min
Overall bit rate : 3 991 kb/s
Writing frontend : TombDoc

Video
ID : 1
Format : HEVC
Format/Info : High Efficiency Video Coding
Format profile : Main [email protected]@Main
Codec ID : V_MPEGH/ISO/HEVC
Duration : 2 h 21 min
Bit rate : 3 350 kb/s
Width : 1 920 pixels
Height : 800 pixels
Display aspect ratio : 2.40:1
Frame rate mode : Constant
Frame rate : 23.976 (24000/1001) FPS
Color space : YUV
Chroma subsampling : 4:2:0
Bit depth : 10 bits
Bits/(Pixel*Frame) : 0.091
Stream size : 3.32 GiB (84%)
Writing library : x265 3.0_RC+11-9a975542fe39:[Windows][MSVC 1920][64 bit] 10bit
Encoding settings : cpuid=1049583 / frame-threads=5 / numa-pools=16,16 / wpp / no-pmode / no-pme / no-psnr / no-ssim / log-level=2 / input-csp=1 / input-res=1920x800 / interlace=0 / total-frames=203928 / level-idc=0 / high-tier=1 / uhd-bd=0 / ref=4 / no-allow-non-conformance / no-repeat-headers / annexb / no-aud / no-hrd / info / hash=0 / no-temporal-layers / open-gop / min-keyint=23 / keyint=250 / gop-lookahead=0 / bframes=8 / b-adapt=2 / b-pyramid / bframe-bias=0 / rc-lookahead=25 / lookahead-slices=4 / scenecut=40 / radl=0 / no-splice / no-intra-refresh / ctu=64 / min-cu-size=8 / rect / no-amp / max-tu-size=32 / tu-inter-depth=1 / tu-intra-depth=1 / limit-tu=0 / rdoq-level=2 / dynamic-rd=0.00 / ssim-rd / signhide / no-tskip / nr-intra=0 / nr-inter=0 / no-constrained-intra / strong-intra-smoothing / max-merge=3 / limit-refs=3 / limit-modes / me=3 / subme=3 / merange=57 / temporal-mvp / weightp / no-weightb / no-analyze-src-pics / deblock=0:0 / sao / no-sao-non-deblock / rd=4 / no-early-skip / rskip / no-fast-intra / no-tskip-fast / no-cu-lossless / no-b-intra / no-splitrd-skip / rdpenalty=0 / psy-rd=0.00 / psy-rdoq=1.00 / no-rd-refine / no-lossless / cbqpoffs=0 / crqpoffs=0 / rc=abr / bitrate=3350 / qcomp=0.60 / qpstep=4 / stats-write=0 / stats-read=2 / cplxblur=20.0 / qblur=0.5 / ipratio=1.40 / pbratio=1.30 / aq-mode=3 / aq-strength=1.00 / cutree / zone-count=0 / no-strict-cbr / qg-size=32 / no-rc-grain / qpmax=69 / qpmin=0 / no-const-vbv / sar=0 / overscan=0 / videoformat=5 / range=0 / colorprim=2 / transfer=2 / colormatrix=2 / chromaloc=0 / display-window=0 / max-cll=0,0 / min-luma=0 / max-luma=1023 / log2-max-poc-lsb=8 / vui-timing-info / vui-hrd-info / slices=1 / no-opt-qp-pps / no-opt-ref-list-length-pps / no-multi-pass-opt-rps / scenecut-bias=0.05 / no-opt-cu-delta-qp / aq-motion / no-hdr / no-hdr-opt / no-dhdr10-opt / no-idr-recovery-sei / analysis-reuse-level=5 / scale-factor=0 / refine-intra=0 / refine-inter=0 / refine-mv=0 / refine-ctu-distortion=0 / no-limit-sao / ctu-info=0 / no-lowpass-dct / refine-analysis-type=0 / copy-pic=1 / max-ausize-factor=1.0 / no-dynamic-refine / no-single-sei / hevc-aq / qp-adaptation-range=1.00
Default : Yes
Forced : No

Audio #1
ID : 2
Format : AC-3
Format/Info : Audio Coding 3
Commercial name : Dolby Digital
Codec ID : A_AC3
Duration : 2 h 21 min
Bit rate mode : Constant
Bit rate : 224 kb/s
Channel(s) : 2 channels
Channel layout : L R
Sampling rate : 48.0 kHz
Frame rate : 31.250 FPS (1536 SPF)
Bit depth : 16 bits
Compression mode : Lossy
Stream size : 227 MiB (6%)
Title : Org VCD DD 2.0 224Kbps ~ TombDoc
Language : Hindi
Service kind : Complete Main
Default : Yes
Forced : Yes

Audio #2
ID : 3
Format : AC-3
Format/Info : Audio Coding 3
Commercial name : Dolby Digital
Codec ID : A_AC3
Duration : 2 h 21 min
Bit rate mode : Constant
Bit rate : 384 kb/s
Channel(s) : 6 channels
Channel layout : L R C LFE Ls Rs
Sampling rate : 48.0 kHz
Frame rate : 31.250 FPS (1536 SPF)
Bit depth : 16 bits
Compression mode : Lossy
Stream size : 389 MiB (10%)
Title : DD 5.1 English
Language : English
Service kind : Complete Main
Default : No
Forced : No

Text #1
ID : 4
Format : PGS
Muxing mode : zlib
Codec ID : S_HDMV/PGS
Codec ID/Info : Picture based subtitle format used on BDs/HD-DVDs
Duration : 2 h 14 min
Bit rate : 24.7 kb/s
Count of elements : 2980
Stream size : 23.8 MiB (1%)
Title : Hindi BD-PGS
Language : Hindi
Default : Yes
Forced : Yes

Text #2
ID : 5
Format : PGS
Muxing mode : zlib
Codec ID : S_HDMV/PGS
Codec ID/Info : Picture based subtitle format used on BDs/HD-DVDs
Duration : 2 h 14 min
Bit rate : 28.1 kb/s
Count of elements : 3090
Stream size : 27.0 MiB (1%)
Title : Eng BD-PGS
Language : English
Default : No
Forced : No

Text #3
ID : 6
Format : PGS
Muxing mode : zlib
Codec ID : S_HDMV/PGS
Codec ID/Info : Picture based subtitle format used on BDs/HD-DVDs
Duration : 2 h 18 min
Bit rate : 21.4 kb/s
Count of elements : 3714
Stream size : 21.2 MiB (1%)
Title : Eng BD-PGS-SDH
Language : English
Default : No
Forced : No

Menu
00:00:00.000 : en:Start
00:08:05.944 : en:Granny Wendy
00:16:44.378 : en:True Origins
00:23:37.625 : en:"My God, the Children!"
00:30:14.396 : en:"He's Come Back"
00:35:50.357 : en:Tinkerbell
00:48:17.603 : en:Pirate Town
00:58:14.199 : en:Capt. James Hook
01:06:16.973 : en:Cutting a Deal
01:11:26.532 : en:The Lost Boys
01:22:03.544 : en:"Oh, There You Are"
01:31:46.000 : en:Ruminations & Plan
01:40:26.020 : en:In Training
01:47:53.592 : en:Lesson One
01:56:29.858 : en:Feast for Imagination
02:08:10.057 : en:"When You're Alone"



Code:

Source: Hook 1991 BluRay 1080p DTS-HD MA 5.1 AVC REMUX-FraMeSToR







Sharing Widget


Download torrent
4.0 GB
Seeders: 5
Leechers: 7
Hook (1991) 1080p 10bit Bluray x265 HEVC [Org DD 2 0 Hindi + DD 5 1 English] MSubs ~ TombDoc

Recently Added Torrents in Movies