Website Shifted Kindly Click on Any Button to Enter This Site..





Loading...

                                                                                                                                 .







































































































































































Beautifully Broken 2018 DVDRip x264 LLG

Seeders: 3
Leechers: 1
Completed: 69

Age: 4 days    Visits: 12    Category: Movies    Size: 836.8 MB

Posted by: LifeLongg    Comments: Read Comments

Info Hash: C1FBBBD575D8BC86CE0466D75BBD5FFECBA6FE1C



Torrent Description



Quote:




******************************Thumbnail:**********************



******************************Screenshots:********************

Screenshot 1

Screenshot 2

Screenshot 3

Screenshot 4

Screenshot 5

Screenshot 6

Screenshot 7

Screenshot 8

Screenshot 9

Screenshot 0


******************************************************

Beautifully.Broken.2018.DVDRip.x264.LLG.mp4
Format : MPEG-4
Format profile : Base Media
Codec ID : isom (isom/iso2/avc1/mp41)
File size : 824 MiB
Duration : 1 h 50 min
Overall bit rate mode : Variable
Overall bit rate : 1 042 kb/s

Video
ID : 1
Format : AVC
Format/Info : Advanced Video Codec
Format profile : [email protected]
Format settings : CABAC / 1 Ref Frames
Format settings, CABAC : Yes
Format settings, RefFrames : 1 frame
Codec ID : avc1
Codec ID/Info : Advanced Video Coding
Duration : 1 h 50 min
Bit rate mode : Variable
Bit rate : 908 kb/s
Maximum bit rate : 2 700 kb/s
Width : 720 pixels
Height : 406 pixels
Display aspect ratio : 16:9
Frame rate mode : Constant
Frame rate : 23.976 (23976/1000) FPS
Color space : YUV
Chroma subsampling : 4:2:0
Bit depth : 8 bits
Scan type : Progressive
Bits/(Pixel*Frame) : 0.129
Stream size : 718 MiB (87%)
Language : English


Audio
ID : 2
Format : AAC LC
Format/Info : Advanced Audio Codec Low Complexity
Codec ID : mp4a-40-2
Duration : 1 h 50 min
Bit rate mode : Constant
Bit rate : 129 kb/s
Channel(s) : 2 channels
Channel layout : L R
Sampling rate : 48.0 kHz
Frame rate : 46.875 FPS (1024 SPF)
Compression mode : Lossy
Stream size : 102 MiB (12%)
Language : English
Default : Yes
Alternate group : 1



********************************************************






Sharing Widget


Download torrent
836.8 MB
Seeders: 3
Leechers: 1
Beautifully Broken 2018 DVDRip x264 LLG

Recently Added Torrents in Movies